AIMP Forum

AIMP для Windows => Ошибки / Замечания => Обработано => Topic started by: gr-e on May 19, 2019, 15:23:11

Title: [x] [2129] Некорректное отображение информации некоторых файлов
Post by: gr-e on May 19, 2019, 15:23:11
Пока нашел только 2 файла (из одного альбома) для которых информация в главном окне, редакторе тегов и плейлисте отображается по-разному:

(https://www.aimp.ru/forum/index.php?action=dlattach;topic=62706.0;attach=57626)

MPC-HC MediaInfo:
Code: [Select]
General
Complete name                  : E:\Music\Aphex Twin\Aphex Twin - 2014 Syro\04. 4 bit 9d api+e+6.mp3
Format                         : MPEG Audio
File size                      : 10.3 MiB
Duration                       : 4mn 28s
Overall bit rate mode          : Constant
Overall bit rate               : 320 Kbps
Album                          : Syro
Album/Performer                : Aphex Twin
Track name                     : 4 bit 9d api+e+6
Track name/Position            : 04
Performer                      : Aphex Twin
Publisher                      : Warp Records
Genre                          : Electronic/Ambient
Recorded date                  : 2014
Writing library                : LAME3.99.5
ISRC                           : WARPCDD247
Cover                          : Yes
Cover type                     : Cover (front)
Cover MIME                     : image/jpg

Audio
Format                         : MPEG Audio
Format version                 : Version 1
Format profile                 : Layer 3
Mode                           : Joint stereo
Mode extension                 : MS Stereo
Duration                       : 24mn 19s
Bit rate mode                  : Constant
Bit rate                       : 320 Kbps
Channel(s)                     : 2 channels
Sampling rate                  : 44.1 KHz
Compression mode               : Lossy
Stream size                    : 10.2 MiB (99%)
Writing library                : LAME3.99.5

Пример файла (https://1drv.ms/u/s!ApTEcnVX4P0RvA7Ufo8ClC53GZJD)
Title: Re: [2129] Некорректное отображение информации некоторых файлов
Post by: Alex-D on May 19, 2019, 19:49:18
Похоже, продолжение https://www.aimp.ru/forum/index.php?topic=62546.0
По-видимому, в плеере что-то сильно изменили в декодере, и теперь трудно отследить его ошибки...
Хотя я пока в 2129 таких файлов не находил.
Title: Re: [2129] Некорректное отображение информации некоторых файлов
Post by: Artem on May 20, 2019, 21:47:58
Похоже, продолжение https://www.aimp.ru/forum/index.php?topic=62546.0
По-видимому, в плеере что-то сильно изменили в декодере, и теперь трудно отследить его ошибки...
Хотя я пока в 2129 таких файлов не находил.

Я откатил все свои изменения, сейчас поведение такое же, как в 4.51. И, по-видимому, ничего больше правиться не будет.
Title: Re: [x] [2129] Некорректное отображение информации некоторых файлов
Post by: ss.pl on May 22, 2019, 09:54:04
gr-e ваш файл какой-то "интересный", либо с Медиа-инфо тоже не всё в порядке,
посмотрите продолжительность трека в секции "General", и сравните её с показаниями в секции "Audio"  ;)
Title: Re: [x] [2129] Некорректное отображение информации некоторых файлов
Post by: gr-e on May 22, 2019, 13:12:59
gr-e ваш файл какой-то "интересный"
Не исключено. У другого проблемного файла время отображается нормально:
Code: [Select]
General
Complete name                  : E:\Music\Aphex Twin\Aphex Twin - 2014 Syro\06. CIRCLONT6A [syrobonkus Mix].mp3
Format                         : MPEG Audio
File size                      : 13.8 MiB
Duration                       : 5mn 59s
Overall bit rate mode          : Constant
Overall bit rate               : 320 Kbps
Album                          : Syro
Album/Performer                : Aphex Twin
Track name                     : CIRCLONT6A [syrobonkus Mix]
Track name/Position            : 06
Performer                      : Aphex Twin
Publisher                      : Warp Records
Genre                          : Electronic/Ambient
Recorded date                  : 2014
Writing library                : LAME3.99.5
ISRC                           : WARPCDD247
Cover                          : Yes
Cover type                     : Cover (front)
Cover MIME                     : image/jpg

Audio
Format                         : MPEG Audio
Format version                 : Version 1
Format profile                 : Layer 3
Mode                           : Joint stereo
Duration                       : 5mn 59s
Bit rate mode                  : Constant
Bit rate                       : 320 Kbps
Channel(s)                     : 2 channels
Sampling rate                  : 44.1 KHz
Compression mode               : Lossy
Stream size                    : 13.7 MiB (99%)
Writing library                : LAME3.99.5