AIMP Forum

AIMP для Windows => Ошибки / Замечания => Обработано => Topic started by: npo100TiT on March 16, 2019, 14:38:17

Title: [x] [Повтор] [2120] перестали воспроизводится некоторые m4a файлы
Post by: npo100TiT on March 16, 2019, 14:38:17
По каким то причинам престали воспроизводиться аудиозаписи пережатые из aac в m4a

После включения издается короткий звук из записи, и переходит на следующий трек

aac (https://drive.google.com/file/d/1TEIaxQYcAxHDv4Bp8ZVFJ3hHbwA5cZGs/view?usp=sharing)
m4a (https://drive.google.com/file/d/1sBgKnW9YcG5BRIRfa9n9q7Leidb4hfF8/view?usp=sharing)

Запсь с диктофона до пережатия
Code: [Select]
General
Complete name               : D:\Лекции\2019.02.16 15.11.aac
Format                      : ADTS
Format/Info                 : Audio Data Transport Stream
File size                   : 18.1 MiB
Overall bit rate mode       : Variable

Audio
Format                      : AAC
Format/Info                 : Advanced Audio Codec
Format version              : Version 2
Format profile              : LC
Bit rate mode               : Variable
Channel(s)                  : 2 channels
Channel positions           : Front: L R
Sampling rate               : 48.0 kHz
Frame rate                  : 46.875 FPS (1024 SPF)
Compression mode            : Lossy
Stream size                 : 18.1 MiB (100%)
После сжатия
Code: [Select]
General
Complete name               : D:\Лекции\2019.02.16 15.11.m4a
Format                      : MPEG-4
Format profile              : Apple audio with iTunes info
Codec ID                    : M4A  (M4A /mp42/isom)
File size                   : 35.7 MiB
Duration                    : 16 min 46 s
Overall bit rate mode       : Variable
Overall bit rate            : 298 kb/s
Encoded date                : UTC 2019-03-10 10:48:46
Tagged date                 : UTC 2019-03-10 10:49:55
Writing application         : qaac 2.67, CoreAudioToolbox 7.10.9.0, AAC-LC Encoder, TVBR q127, Quality 96
replaygain_track_peak       : 0.971272
replaygain_track_gain       : +7.91 dB
replaygain_album_peak       : 1.187585
replaygain_album_gain       : +12.30 dB
Encoding Params             : (Binary)

Audio
ID                          : 1
Format                      : AAC
Format/Info                 : Advanced Audio Codec
Format profile              : LC
Codec ID                    : mp4a-40-2
Duration                    : 16 min 46 s
Bit rate mode               : Variable
Bit rate                    : 295 kb/s
Maximum bit rate            : 328 kb/s
Channel(s)                  : 2 channels
Channel positions           : Front: L R
Sampling rate               : 48.0 kHz
Frame rate                  : 46.875 FPS (1024 SPF)
Compression mode            : Lossy
Stream size                 : 35.4 MiB (99%)
Encoded date                : UTC 2019-03-10 10:48:46
Tagged date                 : UTC 2019-03-10 10:49:55


Windows 10 Pro x64 1809
Title: Re: [Повтор] [2120] перестали воспроизводится некоторые m4a файлы
Post by: Artem on March 16, 2019, 19:32:05
https://www.aimp.ru/forum/index.php?topic=62151.0