AIMP Forum

Разное => Архив => Вопросы (архив) => Topic started by: korand on June 27, 2017, 22:35:17

Title: При сканировании фонотеки не обрабатываются файлы в формате одного FLAC + CUE
Post by: korand on June 27, 2017, 22:35:17
Имеются альбомы в формате одиночного FLAC файла + описание треков в CUE. При индексации фонотеки почему-то CUE файл не обрабатывается и добавляется весь альбом одним треком из файла FLAC. Сам CUE-файл корректный, при добавлении его вручную в плейлист все обрабатывается нормально и отображаются все композиции из альбома.

Для примера файлы в папке:

Alphaville - Forever Young.flac
Alphaville - Forever Young flac.cue

Содержимое файла CUE:

Quote
REM GENRE Synthpop
REM DATE 1984
REM DISCID 740A360A
REM COMMENT "ExactAudioCopy v1.0b3"
PERFORMER "Alphaville"
TITLE "Forever Young"
FILE "Alphaville - Forever Young.flac" WAVE
  TRACK 01 AUDIO
    TITLE "A Victory Of Love"
    PERFORMER "Alphaville"
    INDEX 00 00:00:00
    INDEX 01 00:00:32
  TRACK 02 AUDIO
    TITLE "Summer In Berlin"
    PERFORMER "Alphaville"
    INDEX 01 04:16:40
  TRACK 03 AUDIO
    TITLE "Big In Japan"
    PERFORMER "Alphaville"
    INDEX 01 09:00:65
  TRACK 04 AUDIO
    TITLE "To Germany With Love"
    PERFORMER "Alphaville"
    INDEX 01 13:47:02
  TRACK 05 AUDIO
    TITLE "Fallen Angel"
    PERFORMER "Alphaville"
    INDEX 01 18:01:72
  TRACK 06 AUDIO
    TITLE "Forever Young"
    PERFORMER "Alphaville"
    INDEX 00 21:58:52
    INDEX 01 21:59:72
  TRACK 07 AUDIO
    TITLE "In The Mood"
    PERFORMER "Alphaville"
    INDEX 00 25:46:67
    INDEX 01 25:47:70
  TRACK 08 AUDIO
    TITLE "Sounds Like A Melody"
    PERFORMER "Alphaville"
    INDEX 00 30:19:70
    INDEX 01 30:20:70
  TRACK 09 AUDIO
    TITLE "Lies"
    PERFORMER "Alphaville"
    INDEX 00 35:05:32
    INDEX 01 35:05:70
  TRACK 10 AUDIO
    TITLE "The Jet Set"
    PERFORMER "Alphaville"
    INDEX 01 38:39:02
Title: Re: При сканировании фонотеки...
Post by: jonneine on June 28, 2017, 09:08:04
CUE должен называться также как FLAC, т.е.:
Alphaville - Forever Young.cue
Title: Re: При сканировании фонотеки...
Post by: korand on June 28, 2017, 13:54:02
CUE должен называться также как FLAC, т.е.:
Alphaville - Forever Young.cue

Спасибо, помогло. Только простое обновление фонотеки не сработало, пришлось сначала вручную удалить, после этого при обновлении альбом появился в нормальном виде.