AIMP Forum

AIMP для Android => Вопросы => Topic started by: Newuser on June 12, 2017, 07:19:59

Title: Режим отображения файлов ".m3u", ".m3u8", ".aimpbpl"
Post by: Newuser on June 12, 2017, 07:19:59
    Вопрос данной темы можно относить и к стационарной и к мобильной версиям плеера, и к вопросам и к предложениям.
    Есть, допустим, три трека - "track 1.mp3", "track 2.mp3", "track 3.mp3" - три части одного (симфонического) произведения, создаём из них плейлист, сохраняем его в формате, например, ".m3u8" в папку, где находятся три трека(части) симфонии с названием "track 1-3.m3u8". Далее, при добавлении трех треков и плейлиста "track 1-3.m3u8" отображаются только три трека
1) track 1.mp3
2) track 2.mp3
3) track 3.mp3

а нужно, чтобы было ориентировочно следующее отображение в окне списка треков:
1) track 1.mp3
2) track 2.mp3
3) track 3.mp3
4) track 1-3.m3u8

    Симфонию, в данном случае, хотелось бы слушать не только частями, например,  "track 1",  "track 3",  "track 2", но и в целом  "track 1 -  track 2 - track 3", не создавая для этого отдельный файл (в виде физического слияния трёх частей в один файл с помощью звукового редактора) - для, разумеется, экономии места на карте памяти.
    Как сделать так, чтобы файл  ".m3u"(".m3u8", ".aimpbpl") в плейлисте (по желанию пользователя) отображался в виде единого файла. Спасибо.
Title: Re: Режим отображения файлов ".m3u", ".m3u8", ".aimpbpl"
Post by: Soolo on June 12, 2017, 08:10:10
Никак.
Можно через небольшие костыли сделать разделение или не разделение одного большого файла, но не наоборот.
Title: Re: Режим отображения файлов ".m3u", ".m3u8", ".aimpbpl"
Post by: Newuser on June 12, 2017, 11:50:35
    Использование возможностей формата ".cue", действительно, может решить данный вопрос, но в таком случае нужно вначале соединить части в звуковом редакторе в один файл, в данном случае, в трек под названием "track 1-3.mp3", после этого был создан ".cue" файл:

track 1-3.cue:

TITLE "(Title N.N.)"
FILE "track 1-3.mp3" MP3
  TRACK 01 AUDIO
    TITLE "Track 1-3"
    INDEX 01 00:00:00
  TRACK 02 AUDIO
    TITLE "Track 1"
    INDEX 01 00:00:00
  TRACK 03 AUDIO
    TITLE "Track 2"
    INDEX 01 06:05:47
  TRACK 04 AUDIO
    TITLE "Track 3"
    INDEX 01 17:39:57

И получилось

(http://s014.radikal.ru/i327/1706/99/241c1b869d00.png)

(времени на физическое соединение частей в звуковом редакторе и потом их разделение на нужные части при помощи ".cue" может потребоваться больше, но сэкономить место на карте памяти не минуя решения сути вопроса, оказывается, возможно)(для успешного использования ".cue" в выше поданном или подобном варианте могут потребоваться более новые версии плеера)